Сто тысяч долларов на солнце / Cent mille dollars au soleil (1964) BDRip 720p | 2 x MVO, AVO

 

Кино HD

msltel 24-06-2019, 11:23     
Сто тысяч долларов на солнце / Cent mille dollars au soleil (1964) BDRip 720p | 2 x MVO, AVO
Название: Сто тысяч долларов на солнце
Оригинальное название: Cent mille dollars au soleil
Год выпуска: 1964
Страна: Франция, Италия
Жанр: боевик, комедия, приключения
Продолжительность: 02:04:46
Перевод: закадровый многоголосый, авторский

Режиссер: Анри Вернёй
В ролях: Жан-Поль Бельмондо, Лино Вентура, Реджинальд Кернан, Бернар Блие, Андреа Паризи, Герт Фрёбе, Анн-Мари Коффине, Дуду Бабет, Пьер Мира, Анри Ламбер, Пьер Колле, Кристиан Брокар, Поль Бонифас, Джеки Бланшо, Луи Бюжетт

О фильме: Небольшой городок в Северной Африке. В компанию по грузоперевозкам, где работает Рокко, прибывает новый трейлер с таинственным грузом, который должен уйти в Нигерию. Для этой миссии хозяин фирмы «Папаша Кастальяно» по прозвищу «Свёкла» нанимает человека с фальшивым паспортом и подозрительной репутацией, Джона Штайнера. Вечером, накануне дня выезда, во время дружеской попойки Рокко узнаёт, что в новой машине находится контрабандный груз на сумму сто тысяч долларов. На утро он угоняет машину со всем содержимым. Разгневанный хозяин, узнав о пропаже, посылает в погоню товарища и коллегу Рокко, Марека, который берёт в напарники здоровяка Штайнера. Преследование похитителей превращается в настоящее кэмел-трофи на тяжёлых грузовиках по жёлтым зыбучим пескам Сахары... По роману Клода Вейо «Мы не поедем в Нигерию» («Nous n'irons pas en Nigria») 1962 г.

Сто тысяч долларов на солнце / Cent mille dollars au soleil (1964) BDRip 720p | 2 x MVO, AVO Сто тысяч долларов на солнце / Cent mille dollars au soleil (1964) BDRip 720p | 2 x MVO, AVO

Качество: BDRip 720p
Формат: MKV
Видео: MPEG-4 AVC, 4946 Кбит/с, 1280x544, 24 кадр/с
Аудио 1: русский, AC3, 192 kbps, 2 ch, 48 kHz [закадровый многоголосый, Останкино]
Аудио 2: русский, AC3, 192 kbps, 2 ch, 48 kHz [закадровый многоголосый, Рег-ТВ]
Аудио 3: русский, AC3, 192 kbps, 2 ch, 48 kHz [авторский, Юрий Немахов]
Аудио 4: французский, AC3, 192 kbps, 2 ch, 48 kHz [оригинал]
Субтитры: английские
Главы/чаптеры
[spoiler="Сравнение"]Сто тысяч долларов на солнце / Cent mille dollars au soleil (1964) BDRip 720p | 2 x MVO, AVO Сто тысяч долларов на солнце / Cent mille dollars au soleil (1964) BDRip 720p | 2 x MVO, AVO Сто тысяч долларов на солнце / Cent mille dollars au soleil (1964) BDRip 720p | 2 x MVO, AVO Сто тысяч долларов на солнце / Cent mille dollars au soleil (1964) BDRip 720p | 2 x MVO, AVO[/spoiler]
[spoiler="Инфо-файл"]Общее
Уникальный идентификатор : 215927203627434668511486116522842963400 (0xA27211150BCBBF9A9C3291C0DB9CBDC8)
Полное имя : D:\Video\Сто тысяч долларов на солнце.1964.BDRip 720p by msltel.mkv
Формат : Matroska
Версия формата : Version 4
Размер файла : 4,98 Гбайт
Продолжительность : 2 ч. 4 м.
Общий поток : 5717 Кбит/сек
Название фильма : Rip by msltel
Дата кодирования : UTC 2019-06-24 02:50:29
Программа кодирования : mkvmerge v8.2.0 ('World of Adventure') 64bit
Библиотека кодирования : libebml v1.3.1 + libmatroska v1.4.2

Видео
Идентификатор : 1
Формат : AVC
Формат/Информация : Advanced Video Codec
Профиль формата : High@L4.1
Настройки формата : CABAC / 9 Ref Frames
Параметр CABAC формата : Да
Параметр RefFrames формата : 9 кадров
Идентификатор кодека : V_MPEG4/ISO/AVC
Продолжительность : 2 ч. 4 м.
Битрейт : 4946 Кбит/сек
Ширина : 1280 пикселей
Высота : 544 пикселя
Соотношение сторон : 2,35:1
Режим частоты кадров : Постоянный
Частота кадров : 24,000 кадра/сек
Цветовое пространство : YUV
Субдискретизация насыщенности : 4:2:0
Битовая глубина : 8 бит
Тип развёртки : Прогрессивная
Бит/(Пиксели*Кадры) : 0.296
Размер потока : 4,31 Гбайт (87%)
Библиотека кодирования : x264 core 157 r2935 545de2f
Настройки программы : cabac=1 / ref=9 / deblock=1:-2:-2 / analyse=0x3:0x113 / me=umh / subme=11 / psy=1 / psy_rd=1.00:0.15 / mixed_ref=1 / me_range=32 / chroma_me=1 / trellis=2 / 8x8dct=1 / cqm=0 / deadzone=21,11 / fast_pskip=0 / chroma_qp_offset=-3 / threads=6 / lookahead_threads=1 / sliced_threads=0 / nr=0 / decimate=1 / interlaced=0 / bluray_compat=0 / constrained_intra=0 / bframes=9 / b_pyramid=2 / b_adapt=2 / b_bias=0 / direct=1 / weightb=1 / open_gop=0 / weightp=2 / keyint=230 / keyint_min=23 / scenecut=40 / intra_refresh=0 / rc_lookahead=40 / rc=crf / mbtree=1 / crf=19.0 / qcomp=0.60 / qpmin=0 / qpmax=69 / qpstep=4 / vbv_maxrate=50000 / vbv_bufsize=62500 / crf_max=0.0 / nal_hrd=none / filler=0 / ip_ratio=1.40 / aq=1:1.00
Язык : French
Default : Да
Forced : Нет

Аудио #1
Идентификатор : 2
Формат : AC-3
Формат/Информация : Audio Coding 3
Коммерческое название : Dolby Digital
Идентификатор кодека : A_AC3
Продолжительность : 2 ч. 4 м.
Вид битрейта : Постоянный
Битрейт : 192 Кбит/сек
Каналы : 2 канала
ChannelLayout : L R
Частота : 48,0 КГц
Частота кадров : 31,250 кадров/сек (1536 SPF)
Битовая глубина : 16 бит
Метод сжатия : С потерями
Размер потока : 171 Мбайт (3%)
Заголовок : MVO Останкино
Язык : Russian
ServiceKind/String : Complete Main
Default : Да
Forced : Нет

Аудио #2
Идентификатор : 3
Формат : AC-3
Формат/Информация : Audio Coding 3
Коммерческое название : Dolby Digital
Идентификатор кодека : A_AC3
Продолжительность : 2 ч. 4 м.
Вид битрейта : Постоянный
Битрейт : 192 Кбит/сек
Каналы : 2 канала
ChannelLayout : L R
Частота : 48,0 КГц
Частота кадров : 31,250 кадров/сек (1536 SPF)
Битовая глубина : 16 бит
Метод сжатия : С потерями
Размер потока : 171 Мбайт (3%)
Заголовок : MVO Рег-ТВ
Язык : Russian
ServiceKind/String : Complete Main
Default : Нет
Forced : Нет

Аудио #3
Идентификатор : 4
Формат : AC-3
Формат/Информация : Audio Coding 3
Коммерческое название : Dolby Digital
Идентификатор кодека : A_AC3
Продолжительность : 2 ч. 4 м.
Вид битрейта : Постоянный
Битр


Загрузил: msltel (24 июня 2019 11:23) |
Управление: [обновить]
Взяли: 156 | Размер: 4.98 Gb | Последняя активность: 17 августа 2019 23:35
Раздают: 0 Качают: 0 Скачали: 133
 Мультитрекер 
Раздают: 0 Качают: 0 Скачали: 0
Список файлов


Рейтинг:
- Комментариев: 1 Просмотров: 1166

Перейти на главную страницу
 
z403k - 24 июня 2019 19:18 --
 
Французское кино - эталон качества. Данный фильм не исключение.
Спасибо,братишка winked
Комментариев: 44       
Информация
Посетители, находящиеся в группе Гости, не могут оставлять комментарии к данной публикации.